<?xml version="1.0" standalone="no"?>
<!DOCTYPE svg PUBLIC "-//W3C//DTD SVG 1.1//EN" "http://www.w3.org/Graphics/SVG/1.1/DTD/svg11.dtd">
<svg xmlns="http://www.w3.org/2000/svg">
<metadata>Generated by Fontastic.me</metadata>
<defs>
<font id="devsolution-and" horiz-adv-x="512">
<font-face font-family="devsolution-and" units-per-em="512" ascent="480" descent="-32"/>
<missing-glyph horiz-adv-x="512" />

<glyph unicode="&#97;" d="M137 482c-60 54-155-27-101-97l37-42 102 98z m256-261l-184 191-100-100 188-188z m65-169c19-8 16-2 11 10l-76 159-94-96c0 0 139-65 159-73z m7-16l-294-9c-6 0-11-5-11-12 0-6 5-11 11-11l1 0 294 9c6 1 11 6 11 12-1 6-6 11-12 11z m-297 20l137 0c6 0 11 5 11 11 0 7-5 12-11 12l-137 0c-6 0-11-5-11-12 0-6 5-11 11-11z"/>
<glyph unicode="&#98;" d="M236 164l0-1c0-6 5-10 10-10l12 0c6 0 11 4 11 10l0 1c0 6-5 10-11 10l-12 0c-5 0-10-4-10-10z m-61-63l-2 0c-5 0-10-4-10-10l0-12c0-5 5-10 10-10l2 0c5 0 10 5 10 10l0 12c0 6-5 10-10 10z m-73 73l-12 0c-6 0-10-4-10-10l0-1c0-6 4-10 10-10l12 0c5 0 10 4 10 10l0 1c0 6-5 10-10 10z m71 52l2 0c5 0 10 4 10 10l0 12c0 5-5 10-10 10l-2 0c-5 0-10-5-10-10l0-12c0-6 5-10 10-10z m19-67l1 5c0 6-3 12-8 15l0 21c0 6-5 10-10 10l-2 0c-5 0-10-4-10-10l0-21c-5-3-8-9-8-15 0-11 9-19 19-19l1 0 28-27c4-5 10-5 14-1l1 1c4 4 4 10 0 15z m-18 153c-82 0-149-67-149-148 0-82 67-149 149-149 82 0 149 67 149 149 0 81-67 148-149 148z m0-261c-62 0-112 51-112 113 0 62 50 112 112 112 62 0 112-50 112-112 0-62-50-113-112-113z m287 91l19 3c-13 45-34 192-38 291 4 8 10 21-23 22l-7 0c-7 37-26 45-40 35-12-10-15-27-15-35l-143-1c-8 30-25 37-38 27-9-7-13-19-14-27l-38-1c-11 0-25 4-25-24 0-10 0-55 0-110 8 4 17 8 26 10 0 30 0 54 1 61 2 27 0 23 11 24l0-82c4 1 9 2 14 3l0 78c5 0 25 0 52 1 1-18-3-30-15-35-9-2-12-21 0-24 12-3 31 7 31 59 59 2 141 4 180 5 1-16-3-27-15-31-9-3-12-22 1-25 11-2 30 7 30 57 3 0 5 0 6 0 5-87 21-206 33-258-9-2-53-7-105-14 0-8-1-16-3-23l87 12c0 0 2-14-7-16l-82-7c-3-9-6-18-11-27 61 5 112 9 112 9 22-1 18 8 17 29 0 2 0 7-1 14z m-283 315c5 15 13 14 18 0z m195 1c5 25 15 23 21 0z m5-168c6 11 9 22 8 34-1 11-6 20-13 28-8 8-18 14-30 18-13 3-30 4-51 2-20-1-36-5-47-10-11-5-20-12-25-21-1-2-3-4-4-6 21-5 39-14 56-25 1 9 3 15 7 19 5 4 11 7 18 7 8 1 14-1 20-4 5-4 8-9 9-15 0-5-2-11-6-17-3-4-8-10-17-17 11-11 20-24 27-37 3 2 6 4 9 6 19 14 32 27 39 38z m-29-107l53 4-5 42-58-4c5-13 9-27 10-42z"/>
<glyph unicode="&#99;" d="M419 427l-13 0 0-357-285 0 0 357-13 0c-18 0-33-15-33-33l0-339c0-18 15-32 33-32l311 0c17 0 32 14 32 32l0 339c0 18-15 33-32 33z m-105 7c0 2 0 4 0 6 0 29-23 51-51 51-28 0-51-22-51-51 0-2 0-4 0-6l-32 0 0-35c0-12 10-22 22-22l122 0c13 0 22 10 22 22l0 35z m-51 39c10 0 19-9 19-19 0-10-9-19-19-19-10 0-19 9-19 19 0 10 9 19 19 19z m114-161l-227 0 0 17 227 0z m0-43l-227 0 0 16 227 0z m-85-43l-142 0 0 16 142 0z"/>
<glyph unicode="&#100;" d="M255 509c-139 0-252-113-252-252 0-140 113-253 252-253 140 0 253 113 253 253 0 139-113 252-253 252z m227-188l-76-8c-17 43-51 78-94 94l7 76c79-22 141-84 163-162z m-227-208c-79 0-143 64-143 144 0 79 64 143 143 143 80 0 144-64 144-143 0-80-64-144-144-144z m-64 370l8-76c-43-16-77-50-94-93l-76 7c22 78 84 140 162 162z m-162-290l76 7c17-43 50-77 93-93l-7-77c-78 22-140 84-162 163z m291-163l-7 77c42 16 76 50 92 93l77-7c-22-79-84-140-162-163z"/>
<glyph unicode="&#101;" d="M197 324c-1 4-2 9-2 15l36 0c0-11 6-19 16-21l0 31c-27 8-49 16-49 44 0 30 24 39 49 43l0 2-121 0c-11 0-19-9-19-20l0-60 83-32c3-1 5-1 7-2z m50 61l0 24c-7 0-15-3-15-11 0-9 9-11 15-13z m77-59l86 33 0 59c0 11-8 20-19 20l-127 0 0-2c26-1 51-12 51-43l-35 0c0 8-6 16-16 16l0-27c30-8 53-20 53-46 0-5-1-9-2-13 3 1 6 2 9 3z m-26-30c0 1 0 3 0 4-9-6-21-8-34-9l0-16-17 0 0 16c-12 1-23 4-31 9 0-1 0-2 0-4l0-157c0-2 0-4 0-5l82 0c0 1 0 3 0 5z m-17 34c0 9-8 14-17 16l0-29c8 0 17 5 17 13z m-95-22l-157 61c-7 0-12-6-12-12l0-279c0-6 5-12 12-12l157 61c7 0 12 5 12 12l0 157c0 7-5 12-12 12z m-37-141l-75-17c-1 0-2 0-2 0-6 0-10 3-11 9-2 6 2 12 8 13l75 17c6 1 12-3 13-9 2-6-2-12-8-13z m-89 52c0 6 5 11 11 11l75 2c6 0 12-5 12-11 0-7-5-12-11-12l-75-1 0 0c-7 0-12 5-12 11z m99 44c-1-6-6-10-11-10-1 0-1 0-2 0l-76 11c-6 1-10 6-10 13 1 6 7 10 13 9l76-10c7-1 11-7 10-13z m326 106l-157-61c-7 0-12-5-12-12l0-157c0-7 5-12 12-12l157-61c7 0 12 6 12 12l0 279c0 6-5 12-12 12z m-116-93l76 10c7 1 12-3 13-9 1-7-3-12-9-13l-77-11c0 0-1 0-1 0-6 0-11 4-11 10-1 6 3 12 9 13z m89-57c0-6-5-11-11-11l0 0-75 1c-6 0-11 5-11 12 0 6 5 11 11 11l75-2c6 0 11-5 11-11z m0-60c-1-6-6-9-11-9-1 0-2 0-2 0l-75 17c-7 1-10 7-9 13 1 6 7 10 14 9l74-17c7-1 10-7 9-13z"/>
<glyph unicode="&#102;" d="M369 235l-43 0-33-112-26 59 27 35-3 3c-10-2-21-3-32-3-11 0-22 1-32 3l-1-2 30-37-26-60-34 114-42 0c-56 0-102-46-102-102l0-116 418 0 0 116c0 56-45 102-101 102z m-206 82l15 9c4-7 10-14 15-20l-12-13c-3-2-2-8 3-12 10-9 22-16 35-21 6-2 12 0 13 4l4 17c8-2 17-3 25-3l0-18c0-4 5-7 11-7 14 1 27 5 40 11 6 2 8 8 6 11l-9 16c7 4 14 9 20 15l13-13c3-3 8-1 12 3 9 11 16 23 21 36 2 6 0 11-4 12l-17 5c2 8 3 16 3 25l18 0c4 0 8 5 7 11-1 14-5 27-11 40-2 5-8 8-11 6l-16-9c-4 7-9 14-15 20l13 12c3 3 2 9-3 13-11 9-23 16-36 21-6 2-11 0-12-4l-5-18c-8 3-16 4-25 4l0 18c0 4-5 7-11 7-14-2-27-5-40-11-5-3-8-8-6-12l9-15c-7-4-14-9-20-15l-12 12c-3 3-9 2-13-3-9-10-16-22-21-35-2-6 0-12 4-13l18-4c-2-8-4-17-4-25l-18 0c-4 0-7-5-7-11 2-14 5-27 11-40 3-6 8-8 12-6z m98 109c29 0 52-23 52-52 0-29-23-52-52-52-28 0-52 23-52 52 0 29 24 52 52 52z"/>
<glyph unicode="&#103;" d="M5 310c2 6 9 9 23 9l163 0 38 117 11 38c4 12 9 19 15 19 6 0 11-7 15-19l12-38 38-117 163 0c13 0 21-3 23-9 0 0 0-1 0-2 0-5-5-11-14-18l-69-49-64-45 22-67 30-88c2-6 3-11 3-15 0-4-2-8-4-10-2 0-3-1-5-1-5 0-11 3-18 9l-47 34-151 113c0 1-1 1-2 1-2-10-4-19-4-29 0-6 1-12 2-17 2-16 9-31 19-43l-80-59c-8-6-14-9-18-9-2 0-4 1-5 1-3 2-4 6-4 10 0 4 1 9 3 15l33 100 19 55-64 45-69 49c-10 7-14 13-14 18 0 1 0 2 0 2z"/>
<glyph unicode="&#104;" d="M97 377l286 0 0-57 26 0 0 55c0 16-9 27-25 27l-288 0c-16 0-26-10-26-26l0-193-68 0 0-8c0-8 32-21 85-21l147 0 0 44-137 0z m141 19c4 0 7-3 7-7 0-4-3-7-7-7-3 0-6 3-6 7 0 4 3 7 6 7z m254-92l-226 0c-9 0-16-7-16-16l0-153c0-8 7-15 16-15l226 0c9 0 16 7 16 15l0 153c0 9-7 16-16 16z m-226-97c-3 0-5 2-5 5 0 2 2 4 5 4 2 0 4-2 4-4 0-3-2-5-4-5z m212-58l-198 0 0 125 198 0z m15 54c-5 0-9 4-9 9 0 5 4 9 9 9 5 0 9-4 9-9 0-5-4-9-9-9z"/>
<glyph unicode="&#105;" d="M244 247l0-72 41 0c35 0 54 36 54 61l0 20c0 5 0 10-4 4l-70-61 0 48c0 0 23 1 37 17 15 16 12 46 5 61-8 16-10 16-13 12l-17-25c0 0-13 21-16 24-2 3-3 5-4 3l-20-27-17 28c-3 3-8-1-14-15-18-40 8-78 38-78z m-20-72l9 0 0 30c0 0-53 52-56 57-4 4-7 1-7-3l0-29c0-29 35-55 54-55z m278 72c-126 191-419 186-494 0 102-159 357-170 494 0z m-247 127c71 0 128-53 128-118 0-65-57-118-128-118-71 0-128 53-128 118 0 65 57 118 128 118z"/>
<glyph unicode="&#106;" d="M510 169l0 37-31 5c-1 4-2 8-5 12l17 28-26 26-27-18c-4 2-8 4-12 5l-7 35-37 0-7-35c-6-2-10-4-12-5l-31 21-26-26 21-31c-2-4-4-8-5-12l-32-7 0-36 32-7c1-5 3-9 5-12l-19-27 26-26 29 17c4-2 7-4 11-5l7-31 36 0 8 30c5 2 10 4 13 6l29-18 26 26-19 27c2 4 4 9 6 13z m-83-9c-7-8-16-11-27-11-10 0-19 3-26 11-7 7-11 16-11 26 0 10 4 19 11 26 7 7 16 11 26 11 11 0 20-4 27-11 7-7 11-16 11-26 0-10-4-19-11-26z m-32 206c4 0 7 2 10 4 3 3 4 7 4 11l0 43c0 4-1 7-4 10-3 3-6 5-10 5l-377 0c-4 0-7-2-10-5-3-3-4-6-4-10l0-43c0-4 1-8 4-11 3-2 6-4 10-4z m-130-156c0 10 2 17 3 21l-157 0c-8 0-16 3-22 9-6 6-9 13-9 22 0 9 3 16 9 22 6 7 14 10 22 10l190 0c2 0 3 0 4-1 5 6 12 11 17 13 10 2 34-5 34-5l6 13c0 0 0 10 8 15 3 2 11 3 21 3 0 1 0 1 0 1-3 3-7 4-11 4l-347 0c-4 0-8-1-11-4-3-3-4-6-4-10l0-203c0-4 1-8 4-10 3-3 7-5 11-5l246 0c-1 3-1 6-1 9-1 14 14 28 14 28 0 0-15 3-22 7-6 3-5 44-5 61z"/>
<glyph unicode="&#107;" d="M63 387c0 36 29 65 65 65 15 0 28-5 39-13l46 8 7 9c2 4 2 6 2 7l-21 20c-1 0-3-1-5-3l-15-9-2-2-2 1c-8 5-17 9-26 11l-2 0-1 3-3 17c0 4-2 6-2 6l-29 0c0 0-2-2-3-6l-3-17 0-3-3 0c-9-2-17-6-25-11l-3-1-2 2-14 9c-2 2-5 3-6 3 0 0 0 0 0 0l-20-20c-1-1-1-3 2-7l9-13 2-2-2-3c-5-8-9-17-11-26l-1-3-2 0-16-3c-4-1-6-2-6-3l0-28c0-1 2-2 6-3l15-3 2 0 1-3c2-10 6-19 11-28l2-2-2-3-8-11c-3-4-3-6-2-7l20-20c1 0 4 1 6 3l11 7 2 2 3-2c0 0 1 0 1-1l0 41c-9 12-15 26-15 42z m341-382c-1-2-6 2-9 5-9 11-20 21-38 33-19 11-39 33-62 59l-4 4-2-5-32-66c-3-6-9-10-15-10-3 0-5 0-8 2-8 4-12 14-8 22l40 83 1 2-2 1c-11 14-22 28-31 40 4 9 19 22 29 23 6-7 13-14 19-21l4-4 2 5 8 16 2 3c6 13 12 25 6 44-6 22 4 45 25 56 6 3 14 5 21 5l1 0-15-24-4-6c-2-3-2-6-1-9 1-5 5-10 10-14l10-6c4-2 8-4 13-4 5 0 9 2 11 6l4 6 14 23c1 0 1 0 1-1 10-23 1-50-22-62-5-2-10-4-15-4-19-4-23-12-29-26l-1-1-16-33-1-2 2-2c35-41 57-72 65-89 8-20 17-29 22-37 3-4 7-11 6-11 0 0-1-1-1-1z m-176 44c-3-8 0-17 7-20 3-1 5-2 7-2 6 0 11 4 14 9 3 8 0 17-8 20-2 1-4 2-6 2-6 0-11-4-14-9z m76 137c-4 0-9-3-11-7l-43-90c-3-7 0-14 6-17 2-1 4-1 6-1 5 0 9 3 11 7l43 90c3 6 0 14-6 17-2 0-4 1-6 1z m143-102c-3 0-6 0-9 1l-56 8-31 40 77-11c1 0 2 0 3 0 13 0 22 9 22 22l0 256c0 12-9 22-22 22-1 0-2 0-3-1l-283-39c-13-1-24-14-24-27l0-166c0-13 11-26 24-28l79-11c4-5 9-12 15-18l-8-15-71 11c-49 9-59 11-59 69l0 150c0 51 7 59 59 69l278 43c3 1 6 1 9 1 28 0 49-22 49-50l0-276c0-14-5-27-14-36-9-9-21-14-35-14z m-225 108c-1 1-2 3-3 5-11 18-13 22-13 22l0 0c0 3 3 6 8 10 4 3 7 5 9 5 0 0 0 0 1 0 0-1 1-1 1-1 3-2 11-8 22-19-9-4-20-14-25-22z m-66 91c-1 5-1 11 0 15 6-7 14-9 22-10 10-2 31-6 39-29 2-6 2-12 2-17-3 0-7-1-12-5-3-3-8-7-9-12-9 1-20 6-29 19-12 19-13 39-13 39z m5 38c-8 1-15 9-15 17l0 5c0 8 7 16 15 17l251 35c1 0 2 0 2 0 7 0 13-5 13-13l0-40c0-7-6-12-13-12 0 0-1 0-2 0l0 0 0 0z m29 34c-7 0-13-6-13-14 0-7 6-13 13-13 8 0 14 6 14 13 0 8-6 14-14 14z m61 12c-10 0-18-8-18-18 0-10 8-19 18-19 11 0 19 9 19 19 0 10-8 18-19 18z m90 13c-14 0-24-11-24-24 0-13 10-24 24-24 13 0 23 11 23 24 0 13-10 24-23 24z"/>
<glyph unicode="&#108;" d="M219 16l11 21 29 57 71 32-136 36z m160 182l-20 65c0 3 1 6 2 9l-5 1-1 3-6-2-11 2c-6-26-16-36-35-44-19-8-48-10-85-11-36-2-67-3-93-16-19-9-34-25-45-50l-22 116c2 2 4 4 4 7 0 5-4 9-9 9-6 0-10-4-10-9 0-4 3-7 7-8l24-130c-1-5-3-11-4-17l8-2 1-6 9 2-1 2 5-2c11 41 25 58 44 67 19 10 47 12 83 13 37 2 68 3 93 13 18 7 33 20 42 39l17-53c-2-2-3-4-3-7 0-5 5-9 10-9 5 0 9 4 9 9 0 5-3 9-8 9z m-1 293l-3 3-297-52 16-14c36-30 71-101 92-167l21 1c-19 65-51 129-86 167l247 44c36-33 62-95 74-159 4-25 3-40 2-64l-38-6 5-18 52 7c9 95-24 206-85 258z m7-133l9 2c-8 38-19 65-33 82l-70-13 15-85 9 2c-1 14 4 27 13 35-8 3-13 10-15 18-2 12 7 24 19 26 12 2 24-6 27-18 1-7-1-14-5-19 12-2 24-12 31-30z m-155-51l8-19 168 30-4 20z m-42 104l21-45 75 14-8 47z m27-65l8-19 68 12-3 20z"/>
<glyph unicode="&#109;" d="M500 55l-64 64c-6 7-15 9-24 7l-42 42c68 81 64 203-12 279-81 81-212 81-293 0-81-81-81-212 0-293 76-76 198-80 279-12l42-42c-2-9 1-18 7-24l64-64c10-11 29-10 41 2 12 12 13 31 2 41z m-164 121c-69-69-181-69-249 0-69 69-69 181 0 249 68 69 180 69 249 0 69-68 69-180 0-249z m-21 137l48 0c0 2 0 4 0 7l-48 0 0 79c0 13-11 23-24 23-13 0-24-10-24-23l0-79-37 0 0 15c0 13-10 24-23 24-14 0-24-11-24-24l0-15-123 0c-1-3-1-5-1-7l124 0 0-41-37 0 0 1c0 14-11 24-24 24-13 0-24-10-24-24l0-1-37 0c1-2 1-4 2-6l35 0 0-41-19 0c1-2 2-5 4-7l15 0 0-20c2-2 3-3 5-5 13-13 27-23 43-30l0 55 37 0 0-67c16-3 32-4 47-2l0 69 37 0 0-59c18 7 34 17 48 30l0 29 25 0c1 2 2 5 4 7l-29 0 0 41 45 0c0 2 1 4 1 6l-46 0z m-132-88l-37 0 0 41 37 0z m84 0l-37 0 0 41 37 0z m0 47l-37 0 0 41 37 0z"/>
<glyph unicode="&#110;" d="M207 326c-3 3-7 6-12 7-6 2-12 3-19 3l-29 0 0-76 29 0c15 0 25 3 32 10 6 7 9 17 9 29 0 6 0 11-2 15-2 5-4 9-8 12z m-207 186l0-512 512 0 0 512z m268-246c-4-10-10-19-18-26-8-7-18-13-30-17-13-4-27-6-44-6l-29 0 0-80-56 0 0 241 85 0c17 0 32-2 44-6 12-4 22-10 30-17 8-7 14-15 18-25 3-9 5-20 5-31 0-12-2-23-5-33z m147-97c-3-7-7-13-13-19-7-5-14-9-23-12-9-3-19-4-31-4-6 0-12 1-18 2-6 1-11 2-17 4-5 2-10 4-15 7-4 2-8 5-12 8l12 19c2 2 3 4 5 5 2 2 5 2 8 2 3 0 6 0 8-2 2-1 5-3 8-4 3-2 6-3 10-4 3-2 8-2 14-2 3 0 7 0 10 1 2 1 5 2 6 3 2 2 3 3 4 5 1 2 1 4 1 6 0 3-1 6-3 8-3 2-6 4-10 6-3 1-8 3-12 4-5 2-10 3-15 5-5 2-10 4-15 6-5 3-9 6-13 10-3 4-6 8-9 14-2 5-3 12-3 20 0 7 1 14 4 21 3 6 7 12 13 17 5 5 12 9 21 12 8 3 18 4 30 4 6 0 12 0 18-2 6-1 11-2 16-4 5-2 10-5 14-7 4-3 8-6 11-9l-12-18c-1-2-2-4-4-5-1 0-3-1-5-1-3 0-5 1-8 2-2 1-5 2-8 3-2 1-6 2-9 3-4 1-8 2-12 2-7 0-12-1-15-4-4-2-5-6-5-10 0-3 1-6 3-8 2-2 5-4 9-6 4-1 8-3 13-4 4-2 9-3 14-5 5-2 10-4 15-6 5-3 9-5 13-9 3-3 6-8 9-13 2-5 3-11 3-18 0-8-1-16-5-23z"/>
<glyph unicode="&#111;" d="M422 307l-37 16-28-28c12-21 18-45 18-71 0-82-67-149-149-149-82 0-149 67-149 149 0 82 67 149 149 149 28 0 54-8 76-21l26 26-16 39-3 7c-25 10-53 16-83 16-119 0-216-97-216-216 0-120 97-217 216-217 120 0 217 97 217 217 0 28-6 55-16 80z m38 123l10 10c7 7 7 17 0 24-7 7-17 7-24 0l-11-11-22 52-63-64 22-52-150-149c-6-6-6-17 0-24 7-6 17-6 24 0l150 149 52-22 63 64z m-229-139c4 0 8 0 11-1l38 35c-15 7-31 12-49 12-59 0-108-49-108-108 0-60 49-108 108-108 60 0 108 48 108 108 0 15-3 29-8 42l-38-34c1-3 1-5 1-8 0-35-28-63-63-63-34 0-62 28-62 63 0 34 28 62 62 62z"/>
<glyph unicode="&#112;" d="M485 304l-84 168c-5 13-19 26-63 26l-159 0c-45 0-58-13-63-26l-84-168c-5-8-8-17-8-27l0-68c0-29 23-51 51-51l367 0c28 0 51 22 51 51l0 68c0 10-3 19-8 27z m-18-95c0-14-11-26-25-26l-367 0c-14 0-25 12-25 26l0 68c0 14 11 25 25 25l367 0c14 0 25-11 25-25z m-244 70l-122 0c-5 0-9-3-9-6l0-16c0-3 4-6 9-6l122 0c5 0 8 3 8 6l0 16c0 3-3 6-8 6z m0-47l-122 0c-5 0-9-3-9-6l0-16c0-3 4-6 9-6l122 0c5 0 8 3 8 6l0 16c0 3-3 6-8 6z m92 33c-12 0-23-10-23-23 0-12 11-22 23-22 13 0 23 10 23 22 0 13-10 23-23 23z m80 0c-12 0-23-10-23-23 0-12 11-22 23-22 13 0 23 10 23 22 0 13-10 23-23 23z m47-83l-367 0c-28 0-51-23-51-51l0-68c0-28 23-51 51-51l367 0c28 0 51 23 51 51l0 68c0 28-23 51-51 51z m25-119c0-14-11-26-25-26l-367 0c-14 0-25 12-25 26l0 68c0 14 11 25 25 25l367 0c14 0 25-11 25-25z m-244 70l-122 0c-5 0-9-3-9-6l0-16c0-3 4-6 9-6l122 0c5 0 8 3 8 6l0 16c0 3-3 6-8 6z m0-47l-122 0c-5 0-9-2-9-6l0-15c0-4 4-6 9-6l122 0c5 0 8 2 8 6l0 15c0 4-3 6-8 6z m92 33c-12 0-23-10-23-22 0-13 11-23 23-23 13 0 23 10 23 23 0 12-10 22-23 22z m80 0c-12 0-23-10-23-22 0-13 11-23 23-23 13 0 23 10 23 23 0 12-10 22-23 22z"/>
<glyph unicode="&#113;" d="M339 91l-16 17c-60-27-132-17-181 32-62 63-62 164 0 226 63 63 164 63 227 0 48-48 59-121 32-180l17-17c5 0 9-1 12-5l5-4c8 16 15 33 18 50l30 6c10 1 19 7 19 13l0 58c0 7-9 12-19 14l-32 5c-5 20-13 39-24 56l19 27c6 8 9 18 4 23l-41 40c-4 5-14 3-23-3l-28-20c-17 10-35 17-54 22l-6 34c-2 11-7 19-14 19l-57 0c-7 0-12-8-14-19l-6-34c-19-5-37-12-54-22l-28 20c-9 6-18 8-23 3l-41-40c-5-5-2-15 4-23l19-27c-11-17-19-36-24-56l-32-5c-10-2-19-7-19-14l0-58c0-6 9-11 19-13l30-6c4-21 12-41 23-59l-16-24c-6-8-9-18-4-23l41-40c5-5 14-3 23 3l22 16c19-12 39-21 61-26l5-26c2-11 7-19 14-19l57 0c7 0 12 8 14 19l5 26c16 4 31 10 45 17l-4 4c-3 3-4 8-5 13z m-82 207c-4 0-7-2-5-5l18-23 5-6c3-5 0-13-7-18l-9-7c-7-6-16-6-19-2l-5 7-18 23c-1 2-4 2-5-1-4-8-5-17-4-25 3-29 29-50 58-47 28 3 49 29 46 58-3 28-27 48-55 46z m243-232l-80 79c-3 3-7 4-13 3l-40 39c30 50 23 115-20 158-50 51-133 51-183 0-51-51-51-133 0-184 42-42 107-49 157-20l40-40c-1-5-1-10 2-12l80-80c7-7 25 0 41 15 16 16 23 35 16 42z m-186 129c-32-32-85-32-117 0-32 32-32 84 0 116 32 33 85 33 117 0 32-32 32-84 0-116z"/>
<glyph unicode="&#114;" d="M172 412c10 0 11-13 1-14 0 0-9-2-19-2l62-186 38 113-27 73c-9 0-18 2-18 2-9 0-8 14 1 14 0 0 29-2 46-2 18 0 45 2 45 2 10 0 11-13 1-14 0 0-9-2-19-2l62-185 17 57c9 23 13 41 13 56 0 21-7 36-14 47-9 15-17 27-17 41 0 16 12 30 29 30 1 0 1 0 2 0-30 28-71 45-116 45-60 0-113-31-143-77 4 0 7 0 11 0 18 0 45 2 45 2z m-85-97c0-68 40-127 97-154l-82 224c-9-21-15-45-15-70z m124-165c15-4 31-7 48-7 20 0 39 4 57 10 0 1-1 2-1 3l-53 144z m135 17c51 30 85 85 85 148 0 30-8 58-21 83 1-6 1-12 1-18 0-17-3-37-13-61z m-148-78l18 0 0-56 12 0 0 56 18 0 0 12-48 0z m192-19l-3-8 0 0-3 8-17 31-11 0 0-68 12 0 0 35-2 14 0 0 4-11 14-26 4 0 13 26 4 11 1 0-2-14 0-35 12 0 0 68-11 0z m49-25l0 16 23 0 0 12-23 0 0 16 25 0 0 12-37 0 0-68 37 0 0 12z m-117 16l23 0 0 12-23 0 0 16 25 0 0 12-37 0 0-68 37 0 0 12-25 0z m-152 37c-2 2-5 3-8 3-3 1-6 1-9 1-3 0-6 0-9 0-3 0-6-1-8-1l0-68 12 0 0 23 1 0c1 0 2 0 2 0 1 0 2 0 2 0l2 0c3 0 6 0 9 1 3 1 5 3 7 4 3 2 4 5 6 8 1 3 2 6 2 11 0 4-1 8-3 11-1 3-3 5-6 7z m-5-24c-1-2-2-3-3-4-1-1-3-2-4-2-2 0-3 0-5 0l-1 0-2 0-1 0-1 0 0 22c0 0 1 0 2 1 1 0 3 0 4 0 1 0 3 0 4-1 2 0 3-1 4-2 1 0 2-1 3-3 1-1 1-3 1-5 0-3 0-5-1-6z m-55-11l-1-12 0 0-1 12-11 38-8 0-11-38-1-12 0 0-2 12-8 38-13 0 17-69 9 0 11 38 1 11 0 0 2-11 11-38 8 0 17 69-12 0z m177 10l-23 0 0 28-12 0 0-68 12 0 0 28 23 0 0-28 12 0 0 68-12 0z"/>
<glyph unicode="&#115;" d="M468 464l-418 0c-24 0-41-19-41-44l0-147c0-36 28-52 41-52l195 0 86-46-15 46 144 0c27 0 44 21 44 42l0 159c0 15-6 42-36 42z m-252-191c1-16-2-22-5-25-2-1-3-2-5-2-4 0-9 2-12 5-9 6-34 38-47 86l-1 6-2-5c-5-10-9-19-13-27-17-39-29-64-46-64-18 0-42 127-45 166 0 4 2 8 5 12 3 3 7 5 12 5 7 0 12-5 13-12 4-21 20-104 20-105l1-6 3 5c0 1 36 72 44 83 5 6 12 10 18 10 5 0 9-4 10-11 2-13 9-35 14-53 2-7 4-14 6-19l1-2c5 73 18 112 39 117 2 1 4 1 5 1 5 0 8-2 10-5 4-7 3-18-2-27-10-17-20-74-23-133z m78-9l-1 0c-15 1-28 7-38 17-11 14-17 33-15 56 4 44 30 76 62 76 2 0 3 0 5-1 29-3 46-24 47-58-1-49-28-90-60-90z m126 0l-2 0c-15 1-28 7-38 17-11 14-16 33-14 56 3 44 29 76 61 76 2 0 3 0 5-1 30-3 46-24 47-58-1-49-28-90-59-90z m-117 117l-1 0c-5 0-10-3-15-9-11-12-17-32-15-53 1-15 7-24 17-24 13 0 26 15 31 33 5 20 4 37-4 46-3 5-8 7-13 7z m125 0l-1 0c-5 0-10-3-15-9-11-12-17-32-15-53 1-15 8-24 18-24 12 0 25 15 30 33 5 20 4 37-3 46-4 5-9 7-14 7z m-310-226c-2 4-5 7-9 9-4 2-8 3-13 3-9 0-17-4-22-11-5-8-8-18-8-32 0-6 1-12 2-17 1-6 3-10 6-14 2-4 5-6 9-9 4-2 8-3 13-3 10 0 17 4 22 12 5 7 8 17 8 31 0 7-1 12-2 18-1 5-3 9-6 13z m-11-53c-2-4-6-6-11-6-3 0-5 0-7 2-2 1-3 3-5 6-1 2-2 5-2 9-1 3-1 7-1 11 0 10 1 17 4 22 2 4 6 7 11 7 3 0 5-1 7-3 2-1 4-3 5-6 1-2 2-5 2-9 1-3 1-7 1-11 0-10-1-17-4-22z m66 26l-3-10 0 0-3 10-19 37-13 0 0-82 13 0 0 43-2 16 1 0 4-13 16-31 4 0 15 31 5 13 0 0-1-16 0-43 13 0 0 82-12 0z m270-31c-2-1-5-1-8-1-3 0-6 0-8 2-2 1-4 3-6 6-2 2-3 5-4 9-1 3-1 7-1 11 0 10 2 17 5 22 3 4 8 7 13 7 3 0 6-1 8-1 2 0 4-1 5-2l3 14c-2 1-4 1-7 2-2 1-6 1-10 1-3 0-7-1-11-2-4-2-7-4-10-7-3-4-6-8-7-14-2-5-3-12-3-20 0-8 1-14 2-20 2-5 4-9 7-13 3-3 6-6 10-7 4-2 8-3 12-3 3 0 7 1 10 2 3 0 6 2 8 3l-3 14c-1-2-3-2-5-3z m-64 21c4 2 8 5 10 9 3 4 4 10 4 16 0 5 0 9-2 12-1 3-3 5-6 7-2 2-5 3-8 3-3 1-7 2-10 2-1 0-3-1-4-1-2 0-4 0-6 0-1 0-3 0-5-1-2 0-3 0-5 0l0-82 14 0 0 34 7-2 16-32 16 0-16 31z m-12 10l-6 0 0 24c1 0 2 0 3 0 1 0 3 0 4 0 4 0 6-1 8-3 2-2 3-5 3-8 0-5-1-8-3-10-3-2-6-3-9-3z m-312-31c-2-1-4-1-7-1-4 0-6 0-9 2-2 1-4 3-6 6-1 2-3 5-3 9-1 3-2 7-2 11 0 10 2 17 5 22 4 4 8 7 14 7 3 0 5-1 7-1 2 0 4-1 6-2l2 14c-1 1-4 1-6 2-3 1-7 1-11 1-3 0-7-1-11-2-3-2-7-4-10-7-3-4-5-8-7-14-2-5-3-12-3-20 0-8 1-14 3-20 1-5 3-9 6-13 3-3 7-6 10-7 4-2 8-3 12-3 4 0 7 1 10 2 4 0 6 2 8 3l-2 14c-2-2-4-2-6-3z m198 31l-3-10 0 0-4 10-18 37-13 0 0-82 13 0 0 43-2 16 1 0 4-13 16-31 4 0 15 31 4 13 1 0-2-16 0-43 14 0 0 82-12 0z m220-10l26 0 0 14-26 0 0 19 28 0 0 14-41 0 0-82 42 0 0 14-29 0z m-164 0l25 0 0 14-25 0 0 19 27 0 0 14-41 0 0-82 42 0 0 14-28 0z"/>
<glyph unicode="&#116;" d="M51 385c2 3 5 7 8 12 4 5 12 14 24 27 12 13 25 24 38 34 13 10 29 19 49 27 20 8 40 12 60 12 20 0 40-4 59-11 20-8 37-18 51-28 13-11 26-22 37-33 10-11 19-21 24-29l8-11c-2-3-5-7-8-12-4-5-12-14-24-27-12-13-25-24-38-34-13-10-30-19-49-27-20-8-40-12-60-12-20 0-40 4-60 11-19 8-36 18-50 28-13 11-26 22-37 33-10 11-19 21-24 28z m117 56c-17-16-26-34-26-56 0-22 9-40 26-56 17-15 38-23 62-23 24 0 45 8 62 23 17 16 26 34 26 56 0 22-9 40-26 56-17 15-38 23-62 23-24 0-45-8-62-23z m34-31c-7-7-11-15-11-25 0-10 4-18 11-25 8-7 17-10 28-10 11 0 20 3 28 10 8 7 11 15 11 25 0 9-4 18-12 25-8 7-17 10-27 10-11 0-20-3-28-10z m-151-194c2 1 4 1 7 1 2 0 4 1 7 1 2 0 5 0 7 0 2 0 4 0 6 0 4 0 9 0 13-1 4-1 8-2 11-4 4-2 6-5 8-8 2-4 3-8 3-13 0-8-1-14-5-19-4-5-8-8-14-10l6-4 22-36-21 0-22 37-10 2 0-39-18 0z m28-14c-2 0-3 0-5 0-2 0-4 0-5-1l0-27 8 0c5 0 9 1 12 4 4 2 5 6 5 11 0 4-1 7-4 10-2 2-6 3-11 3z m53 15l56 0 0-16-38 0 0-22 34 0 0-17-34 0 0-23 39 0 0-16-57 0z m137-16l-27 0 0-78-19 0 0 78-27 0 0 16 73 0z m12 16l18 0 0-94-18 0z m59-45l-7 15-1 0 2-15 0-49-17 0 0 95 13 0 36-50 7-15 1 0-2 15 0 49 17 0 0-95-13 0z m112-28l-29 0-7-21-19 0 34 95 14 0 34-95-20 0z m-24 15l20 0-7 21-3 14-1 0-3-15z m-377-50c2 0 4 0 7 1 2 0 4 0 7 0 2 0 5 1 7 1 2 0 4 0 6 0 4 0 9-1 13-1 4-1 8-3 11-5 4-2 6-4 8-8 2-3 3-7 3-13 0-7-1-14-5-19-4-4-8-8-14-10l6-4 22-36-21 0-22 37-10 2 0-39-18 0z m28-15c-2 0-3 0-5 0-2 0-4 0-5 0l0-28 8 0c5 0 9 2 12 4 4 2 5 6 5 11 0 5-1 8-4 10-2 2-6 3-11 3z m53 15l56 0 0-16-38 0 0-22 34 0 0-16-34 0 0-23 39 0 0-17-57 0z m117-73l-29 0-7-21-19 0 34 95 14 0 34-95-20 0z m-25 15l21 0-7 21-3 15-1 0-3-15z m60 58c1 1 4 1 6 1 2 0 5 0 7 1 3 0 5 0 8 0 2 0 4 0 6 0 8 0 16-1 21-4 6-2 11-5 15-10 4-4 6-9 8-15 2-5 2-12 2-19 0-6 0-12-2-18-2-6-4-11-8-16-4-5-9-8-15-11-6-3-14-4-23-4-1 0-3 0-5 0-3 0-5 0-8 0-2 0-5 1-7 1-2 0-4 0-5 0z m29-15c-2 0-4 0-6 0-2 0-4 0-5 0l0-63c0 0 1 0 2 0 1 0 2-1 3-1 1 0 2 0 2 0 1 0 2 0 2 0 6 0 10 1 13 3 4 2 7 4 9 7 2 3 3 7 4 11 1 4 1 8 1 12 0 4 0 8-1 11-1 4-2 7-4 10-2 3-5 6-8 8-3 1-7 2-12 2z m74-44l-31 59 22 0 17-35 2-10 1 0 2 10 16 35 20 0-31-59 0-35-18 0z"/>
<glyph unicode="&#117;" d="M221 374l0-120c0-7 6-12 13-12l178 0c7 0 12 5 12 12l0 120c0 7-5 13-12 13l-178 0c-7 0-13-6-13-13z m191-53c4 0 7-3 7-7 0-4-3-7-7-7-4 0-7 3-7 7 0 4 3 7 7 7z m-167 42l156 0 0-98-156 0z m-8-49c0-2-1-3-3-3-2 0-4 1-4 3 0 2 2 4 4 4 2 0 3-2 3-4z m-28-45l0 34-108 0 0 141 224 0 0-45 21 0 0 44c0 12-7 20-19 20l-226 0c-13 0-21-8-21-20l0-152-53 0 0-6c0-6 25-16 66-16z m3 190c3 0 6-3 6-6 0-3-3-5-6-5-3 0-5 2-5 5 0 3 2 6 5 6z m50-269c-4 1-7 2-12 2-8 0-15-3-19-8-4-6-7-14-7-24 0-5 1-9 2-13 1-4 2-7 5-10 2-3 4-5 8-7 3-1 7-2 11-2 9 0 15 3 19 8 5 6 7 14 7 24 0 5 0 9-1 13-1 4-3 7-5 10-2 3-5 5-8 7z m-2-46c-2-3-6-5-10-5-2 0-4 0-6 1-1 2-3 3-4 5-1 2-2 4-2 7-1 2-1 5-1 8 0 7 1 13 3 16 3 3 6 5 10 5 3 0 5 0 6-1 2-2 3-3 5-5 1-2 1-4 2-7 0-2 1-5 1-8 0-7-2-13-4-16z m-186-37c-3 3-6 5-10 6-3 2-8 3-14 3-1 0-2 0-4 0-1 0-3 0-4 0-2 0-4-1-5-1-2 0-3 0-4 0l0-61c0 0 2-1 3-1 2 0 3 0 5 0 1 0 3 0 5 0 1 0 2 0 3 0 6 0 11 1 15 2 4 2 7 5 10 8 2 3 4 6 5 10 1 4 2 8 2 12 0 4-1 9-2 12-1 4-3 7-5 10z m-7-30c0-3-1-5-2-7-2-2-4-4-6-5-2-1-5-2-8-2l-2 0-1 1-2 0-1 0 0 41c0 0 1 0 3 0 1 0 2 0 3 0 4 0 7-1 9-2 2-1 4-3 5-4 1-2 2-5 2-7 1-2 1-5 1-7 0-3 0-6-1-8z m6 97c0 4 0 6-2 9-1 2-3 4-5 5-2 1-5 2-7 3-3 0-6 0-9 0-1 0-2 0-4 0-1 0-3 0-4 0-2 0-3 0-5 0-2-1-3-1-4-1l0-61 12 0 0 26 6-2 14-24 14 0-14 24-5 2c4 2 7 4 10 7 2 3 3 7 3 12z m-15-9c-2-2-5-2-8-2l-5 0 0 17c0 1 1 1 2 1 2 0 3 0 4 0 3 0 6-1 7-2 2-2 3-4 3-7 0-3-1-6-3-7z m237-82l1-10 0 0-5 10-23 32-9 0 0-61 12 0 0 32-2 9 1 0 4-9 23-33 9 0 0 62-11 0 0-32z m78 78c-2 1-4 3-6 4-3 1-5 2-7 3-2 1-4 2-5 3-2 1-2 3-2 4 0 2 0 4 2 5 1 1 3 1 6 1 3 0 6 0 9-1 2 0 4-1 5-2l4 10c-2 1-5 2-8 3-3 1-6 1-10 1-3 0-6-1-8-1-3-1-5-2-7-3-1-2-3-4-4-6-1-2-1-5-1-8 0-3 0-6 2-8 1-2 3-4 5-6 2-1 4-2 7-3 2-1 4-2 6-3 2-1 4-2 5-4 2-1 3-2 3-4 0-3-1-4-3-6-2-1-5-1-8-1-2 0-3 0-5 0-1 0-3 1-4 1-1 0-2 1-3 1-1 0-2 1-3 1l-4-10c2-1 4-2 8-3 3 0 7-1 11-1 3 0 7 1 9 1 3 1 5 2 7 4 2 1 4 3 5 6 1 2 2 5 2 8 0 3-1 6-3 8-1 3-3 4-5 6z m-145-83l13-1 0-12c-1 0-2-1-4-1-1-1-3-1-4-1-3 0-5 1-7 1-2 1-3 2-5 4-1 2-2 4-3 7-1 2-1 6-1 9 0 4 0 7 1 10 1 3 2 5 4 7 1 1 3 3 5 3 2 1 4 1 7 1 3 0 5 0 7 0 2 0 3-1 5-1l2 10c-1 0-4 1-6 1-3 1-6 1-9 1-4 0-7 0-11-2-3-1-6-3-9-5-3-3-5-6-6-10-2-4-3-9-3-15 0-5 1-10 2-14 2-4 4-7 6-10 2-3 5-4 9-6 3-1 7-2 11-2 3 0 6 1 10 2 3 1 6 2 8 4l0 28-22 0 0-8z m92 80l2-9-1 0-4 9-24 33-8 0 0-62 11 0 0 32-1 10 0 0 5-10 23-32 9 0 0 62-12 0 0-33z m70-29l12 0 0 62-12 0z m88 11l0 15 22 0 0 11-22 0 0 14 24 0 0 11-36 0 0-62 37 0 0 11z m-41 15l-2-11 0 0-2 11-12 36-14 0 23-62 9 0 23 62-13 0z m-225 0c3 2 4 4 6 6 1 3 2 6 2 10 0 4-1 8-3 11-1 2-3 4-6 6-2 1-5 2-8 3-3 0-6 0-9 0-3 0-6 0-9 0-3 0-5-1-8-1l0-61 12 0 0 22 2-1 2 0 2 0 1 0c3 0 6 1 9 1 3 1 5 2 7 4z m-13 6c-2 0-3 0-5 0l-1 0-1 0-2 0-1 0 0 20c1 0 2 0 3 0 1 0 2 0 3 0 2 0 3 0 4 0 2-1 3-1 4-2 1-1 2-2 3-3 1-1 1-3 1-5 0-2 0-4-1-5-1-2-2-3-3-3-1-1-2-2-4-2z m-98-82l22 0 0 11-22 0 0 14 24 0 0 11-36 0 0-61 37 0 0 10-25 0z m45 60c-1 0-3 0-4 0-2 0-3 1-4 1-2 0-3 1-4 1-1 0-2 1-2 1l-4-10c2-1 4-2 7-3 4 0 7-1 12-1 3 0 6 1 9 1 3 1 5 2 7 4 2 1 4 3 5 6 1 2 1 5 1 8 0 3 0 6-2 8-1 3-3 4-5 6-2 1-4 3-7 4-2 1-4 2-6 3-3 1-4 2-6 3-1 1-2 3-2 4 0 2 1 4 3 5 1 1 3 1 6 1 3 0 6 0 8-1 3 0 5-1 6-2l4 10c-2 1-5 2-8 3-3 1-6 1-10 1-3 0-6-1-8-1-3-1-5-2-7-3-2-2-3-4-4-6-1-2-2-5-2-8 0-3 1-6 2-8 2-2 4-4 6-6 2-1 4-2 6-3 3-1 5-2 7-3 2-1 4-2 5-4 2-1 2-2 2-4 0-3-1-4-3-6-1-1-4-1-8-1z m20-54c-2 2-4 3-7 4-2 1-4 2-6 3-3 1-4 2-6 3-1 1-2 3-2 5 0 1 1 3 3 4 1 1 3 2 6 2 3 0 6-1 8-1 3-1 5-2 6-3l4 11c-2 1-5 2-8 2-3 1-7 1-10 1-3 0-6 0-8-1-3-1-5-2-7-3-2-2-3-3-4-6-1-2-2-4-2-7 0-4 1-7 2-9 2-2 3-4 6-5 2-2 4-3 6-4 3-1 5-2 7-3 2-1 4-2 5-3 2-1 2-3 2-5 0-2-1-4-3-5-2-2-4-2-8-2-1 0-3 0-4 0-2 0-3 1-4 1-2 0-3 1-4 1-1 1-2 1-2 1l-4-10c1-1 4-1 7-2 4-1 7-2 12-2 3 0 6 1 9 2 3 0 5 2 7 3 2 2 3 4 5 6 1 2 1 5 1 8 0 4-1 6-2 9-1 2-3 4-5 5z m-44 55l-25 0 0 15 22 0 0 11-22 0 0 14 25 0 0 11-37 0 0-62 37 0z m60-86l12 0 0 61-12 0z"/>
<glyph unicode="&#118;" d="M193 425c21 8 43 13 66 13 96 0 175-79 175-176 0-35-10-67-28-95 8-13 16-26 22-40 30 37 47 84 47 135 0 120-97 217-216 217-30 0-58-6-84-17 7-9 13-20 17-32 1-2 1-4 1-5z m66-338c-97 0-176 79-176 175 0 23 5 45 13 65-12 5-24 12-36 22-11-27-18-56-18-87 0-119 97-216 217-216 28 0 54 5 79 15-13 8-26 19-39 31-13-3-26-5-40-5z m144 24c-25 56-70 106-115 157-14 16-29 32-43 46-2 2-4 4-5 6-2 2-5 4-7 6-2 2-4 4-6 7-24 22-43 39-50 43-1 1-3 2-4 3-2 1-4 1-5 2l1 0c0 8 1 23-5 40-14 45-55 53-76 57-20 3-36 9-42 32-14-27-6-88 18-122 21-29 46-38 65-39l0 1c1-2 1-4 2-6l1-2c0 0 3-6 24-41 3-5 7-11 12-18 1-3 3-5 5-7 2-3 3-5 5-7 1-2 3-4 4-6 29-39 19-25 53-62 46-52 86-95 121-118 36-23 56-40 72-56 16-17 32-21 25-4-7 17-25 33-50 88z m-346 359c3-29 32-35 19-53-13-17-29 16-19 53z m20-78c-4 0-8 4-8 8 0 5 4 8 8 8 4 0 8-3 8-8 0-4-4-8-8-8z"/>
<glyph unicode="&#119;" d="M230 202c-3 0-6-3-6-6l0-13c0-4 3-7 6-7l1 0 0 26z m-59 22l-2-3c-2-3-2-7 1-10l4-1c2 0 4 1 6 3l2 3c2 3 2 8-1 10-3 2-7 1-10-2z m-34 31l-25-9c-3-2-5-5-4-9 1-3 4-4 7-4l2 0 25 9c3 2 5 5 4 9-1 3-5 5-9 4z m-78 19c37 28 72 47 105 59-7-12-10-25-10-38 0-43 34-78 77-79l0 171c-70-1-146-34-231-105 22-87 115-163 231-155l0 42c-86-5-155 46-172 105z m178-78l0-13c0-4-3-6-6-7l0-7c55 3 117 28 178 88-35 35-70 61-107 75 6-11 9-24 9-37 0-44-35-79-78-79l-2 0 0-14c3 0 6-3 6-6z m75 77c1 3 4 5 8 4l26-7c4-1 6-5 5-8-1-3-4-5-7-5l-2 0-26 7c-3 1-5 5-4 9z m-20-40c3 2 7 2 9-1l4-6c2-3 1-7-2-9l-3-1c-3 0-5 1-6 3l-4 5c-2 3-1 7 2 9z m-61 198l0-44c84 1 161-46 237-129-81-89-164-126-237-131l0-35 281 0 0 339z"/>
<glyph unicode="&#121;" d="M303 57l-11 16c46 144 99 276 160 393l59 0c-17-52-36-118-56-197-19-79-34-150-45-212z m-292 0l-12 16c22 70 48 141 78 213 31 73 58 133 82 180l61 0c-18-53-38-121-58-203-20-82-35-151-44-206z"/>
<glyph unicode="&#122;" d="M0 266c0 22 11 40 34 55l4 2 106 0c58 0 108 27 149 80 0 4 2 8 5 11 3 3 6 5 11 5 4 0 8-2 11-5 3-3 5-7 5-11l0-274c0-4-2-8-5-11-3-3-7-5-11-5-5 0-8 2-11 5-3 3-5 7-5 11-42 52-92 78-150 78l4 0 41-72-41-29c-3-2-5-3-8-3-6 0-12 4-18 11l-57 93-26 0c-1 1-3 2-4 3-2 1-5 3-9 7-5 4-8 9-12 13-3 4-7 9-9 16-3 7-4 14-4 20z m50 22c-2-2-3-4-3-6 0-2 1-4 3-6 1-2 3-2 5-2l30 0c2 0 4 0 6 2 1 2 2 4 2 6 0 6-3 9-8 9l-30 0c-2 0-3-1-5-3z m0-34c-2-2-3-3-3-5 0-2 1-4 3-6 1-2 3-2 5-2l30 0c2 0 4 0 6 2 1 2 2 4 2 6 0 5-3 7-8 7l-30 0c-2 0-3 0-5-2z m112-10c45 0 84-13 117-39l0 122c-32-27-71-41-117-41z m213 111l65 64 16-15-65-64z m0-181l16 16 65-65-16-15z m28 81l0 22 109 0 0-22z"/>
<glyph unicode="&#65;" d="M190 249l-16 6 15 8c30 15 48 45 48 79 0 49-40 89-89 89-49 0-89-40-89-89 0-34 19-64 48-79l16-8-17-6c-59-21-101-86-104-159l189 0 0 1c2 48 19 94 47 128-14 13-30 24-48 30z m214 0l-16 6 15 8c30 15 48 45 48 79 0 49-39 89-88 89-50 0-89-40-89-89 0-34 18-64 48-79l15-8-16-6c-60-21-102-86-105-159l293 0c-3 73-45 138-105 159z"/>
<glyph unicode="&#66;" d="M504 294c0 60-28 114-72 152-45 38-106 62-172 62-67 0-128-24-172-62-45-38-73-92-73-152 0-60 28-114 73-152 43-37 101-60 166-62 5-5 9-13 9-21 0-8-2-14-12-21-6-5-9-13-7-21 2-9 10-14 18-14 38 0 71 15 95 36 24 21 40 48 41 77l0 1c63 38 106 103 106 177z m-146-139c-7-4-11-12-9-20 1-2 1-4 1-6 1-11-8-29-25-43-8-7-17-13-28-17 1 3 1 6 1 8 0 22-11 42-30 52-2 2-5 2-8 2-53 0-100 19-134 48-34 29-54 69-54 112 0 43 20 82 54 111 34 30 81 48 134 48l0 0c52 0 99-18 133-48 34-29 54-68 54-111 0-57-35-107-89-136z m-157 178c-3 3-6 6-10 7-4 2-9 3-14 3-14 0-26-5-36-14l4-7 2-2 4-1c2 0 3 0 5 1 1 1 2 1 4 2 2 1 4 2 6 3 2 1 5 1 8 1 5 0 9-1 11-4 3-3 4-7 4-13l0-5c-10 0-18-1-25-3-7-1-12-3-16-6-4-3-7-5-8-9-2-3-3-6-3-9 0-4 1-8 2-11 1-2 3-5 5-7 2-2 5-3 8-4 3-1 6-2 10-2 3 0 6 0 9 1 2 0 4 1 7 2 2 1 4 3 6 4 2 2 5 3 7 5l2-6c0-2 1-3 2-4 1 0 3 0 5 0l9 0 0 54c0 5-1 10-2 14-2 4-4 7-6 10z m-12-56c-2-2-3-3-5-4-1-1-3-2-4-3-2-1-4-1-5-2-2 0-4 0-6 0-4 0-7 0-9 2-2 2-3 4-3 8 0 2 0 3 1 5 1 2 3 3 6 4 2 1 5 2 10 3 4 1 9 1 15 1z m111 54c-2 4-6 7-10 9-4 1-8 2-13 2-5 0-10-1-15-3-4-2-8-5-11-9l0 50-21 0 0-125 14 0 3 0 2 4 1 5c1-1 2-3 4-4 2-2 3-3 5-4 2-1 4-1 6-2 2 0 5-1 7-1 6 0 11 1 16 4 4 2 8 5 11 9 4 4 6 9 8 15 2 5 2 11 2 17 0 8 0 14-2 19-1 6-4 10-7 14z m-14-46c-1-3-2-6-4-9-1-2-4-4-6-5-3-1-5-2-9-2-3 0-6 1-9 2-2 1-5 3-7 6l0 39c2 3 5 6 8 7 3 2 7 3 11 3 3 0 5 0 8-1 2-1 4-3 5-5 2-2 3-5 4-9 0-3 1-7 1-13 0-5-1-9-2-13z m97-8l-4-1-3-3c-2-1-3-2-5-3-2 0-5-1-8-1-4 0-7 1-9 2-3 1-5 3-7 6-2 2-3 5-4 9-1 3-2 7-2 12 0 4 1 8 1 12 1 3 3 6 5 9 1 2 4 4 6 6 3 1 6 2 10 2 3 0 5-1 7-1 2-1 4-2 5-3l4-2 3-1 3 1 1 2 6 7c-4 4-8 7-13 9-5 2-11 3-17 3-7 0-13-1-18-3-5-2-10-5-13-9-4-4-7-9-8-14-2-6-3-12-3-18 0-7 1-13 3-19 2-5 5-10 8-14 4-4 8-7 13-9 4-2 9-3 15-3 3 0 6 1 9 1 3 0 6 1 9 2 3 1 6 3 8 5 3 2 5 4 8 6l-6 8c-1 1-2 2-4 2z"/>
<glyph unicode="&#67;" d="M345 76l-285 0 0 315 209 0 48 49-315 0 0-421 400 0 0 257-57-65z m150 408c-11 11-24 16-40 16-15 0-29-5-40-17l-36-36 2 1-219-217-27-101 2 0 102 23 217 217 0-1 37 36c11 12 17 25 18 40l0 2c0 15-6 27-16 37z"/>
<glyph unicode="&#68;" d="M5 257c0 69 24 128 73 176 50 49 109 73 178 73 69 0 128-24 177-72 49-49 74-108 74-177 0-70-25-129-73-178-49-49-108-73-179-73-69 0-128 24-177 73-49 49-73 108-73 178z m47 0c0-13 0-23 1-28 14-17 41-29 82-36-3 20-5 40-5 62 0 13 1 27 3 42-34 7-58 14-73 20-5-19-8-38-8-57 0-1 0-2 0-3z m11-69c13-32 29-57 49-75 17-18 39-33 66-45-17 24-29 55-38 94-34 8-60 17-77 26z m9 156c2-2 23-8 64-19 9 51 24 91 46 120-33-15-56-30-70-45-16-14-30-33-40-56z m86-89c0-24 2-46 5-67 25-4 50-7 78-8l0 109c-31 1-59 2-82 5 0-5 0-11 0-20-1-8-1-15-1-19z m5 66c25-2 51-3 78-4l0 142-2 0c-18-7-33-22-47-47-13-25-23-55-29-91z m7-164c4-19 11-37 21-54 13-33 30-50 50-50l0 99c-24 1-48 3-71 5z m99 160c26 0 52 2 79 4-11 60-30 102-59 128-10 7-17 10-20 10l0 0z m0-137c26 1 52 3 78 7 3 17 5 39 5 68 0 17-1 29-1 38-26-2-54-4-82-4z m0-127c28 0 52 35 72 104-24-2-48-4-72-5z m60 393c22-29 37-69 45-122 35 6 57 13 65 19-23 51-60 85-110 103z m3-378c28 12 50 27 67 45 20 19 36 43 47 72-20-9-45-17-75-24-10-39-23-70-39-93z m44 125c37 6 60 14 70 22 9 9 14 23 14 42 0 21-4 41-10 60-24-11-48-17-72-20 1-10 2-24 2-42 0-20-2-41-4-62z"/>
<glyph unicode="&#69;" d="M131 396c14 1 15-19 2-20 0 0-14-2-29-3l91-269 54 163-38 106c-14 1-26 3-26 3-14 0-12 21 1 20 0 0 41-3 66-3 26 0 66 3 66 3 13 1 15-19 2-20 0 0-14-2-29-3l90-267 25 83c12 32 19 59 19 80 0 31-11 52-21 69-12 20-24 38-24 58 0 23 17 44 42 44l3 0c-44 41-103 65-168 65-87 0-164-44-208-112 6 0 11 0 16 0 26 0 66 3 66 3z m-123-139c0-99 57-184 140-224l-118 325c-14-31-22-65-22-101z m179-239c22-7 45-10 70-10 29 0 57 5 82 14l-1 3-77 210z m195 24c74 43 124 123 124 215 0 43-11 84-31 119 1-8 2-16 2-26 0-25-5-53-19-89z"/>
<glyph unicode="&#70;" d="M502 54l-64 64c-6 6-15 8-24 6l-42 42c68 81 64 203-12 279-81 81-212 81-293 0-81-81-81-212 0-292 77-77 198-81 279-13l42-42c-2-9 0-18 7-24l63-64c11-10 29-9 41 3 12 12 13 30 3 41z m-164 120c-69-68-180-68-249 0-69 69-69 180 0 249 69 69 180 69 249 0 68-69 68-180 0-249z m-21 137l48 0c0 2 0 4-1 6l-47 0 0 79c0 13-11 24-24 24-13 0-24-11-24-24l0-79-37 0 0 16c0 13-10 23-23 23-13 0-24-10-24-23l0-16-123 0c0-2 0-4 0-6l123 0 0-41-37 0 0 1c0 13-11 24-24 24-13 0-23-11-23-24l0-1-37 0c0-2 1-4 1-6l36 0 0-41-20 0c1-2 3-4 4-7l16 0 0-20c1-2 3-3 5-5 12-13 27-23 42-30l0 55 37 0 0-67c16-3 32-3 47-1l0 68 37 0 0-59c18 7 34 17 48 30l0 29 24 0c2 3 3 5 4 7l-28 0 0 41 45 0c0 2 1 4 1 6l-46 0z m-132-88l-37 0 0 41 37 0z m84 0l-37 0 0 41 37 0z m0 47l-37 0 0 41 37 0z"/>
<glyph unicode="&#72;" d="M512 281l-512 0 87 165 280 0z m0-104l-60 68-416 0-36-68z m0-103l-60 68-416 0-36-68z"/>
</font>
</defs>
</svg>
